world.thomson-multimedia
» » Michael Johnson - There Is A Breeze

Michael Johnson - There Is A Breeze album flac

Michael Johnson  - There Is A Breeze album flac Performer: Michael Johnson
Title: There Is A Breeze
Released: 1973
Country: US
MP3 album: 1419 mb
FLAC album: 1660 mb
Rating: 4.7
Other formats: VOX VOC AHX AUD VQF MOD ASF
Genre: Folk and Country

Michael Jay Johnson (August 8, 1944 – July 25, 2017) was an American pop, country, and folk singer-songwriter and guitarist. He is best known for his 1978 hit song "Bluer Than Blue". He charted four hits on the Billboard Hot 100 chart and nine more on Hot Country Songs, including two Number One country hits in 1986's "Give Me Wings" and "The Moon Is Still Over Her Shoulder". He also co-wrote "Cain's Blood", the debut single of 1990s country group 4 Runner.

Album by Michael Johnson. Pilot Me. In Your Eyes. Rooty Toot Toot For The Moon. You've Got To Be Carefully Taught. MusicBrainz: There Is A Breeze.

Album There Is A Breeze (1973). There is a breeze that comes by here everyday Freshens the spirit, takes the dead away There is a sun that shines for you and you and me It's been healing nights for centuries. Fool, I say fool You waste time as a rule You don't measure days one by one I don't mean to draw tears or bring sorrow to your years I love you and I'd like to see you freer There is a feelin', it comes here everyday Turns your head around, takes your breath away . .

There Is A Breeze is the debut album by singer-guitarist Michael Johnson. It was first released in August 1973 on Atco Records, re-released on Sanskrit Records (a record label owned by Johnson and his manager, Keith Christianson) in 1976, and released on EMI America in 1981. It was co-produced by Phil Ramone, Peter Yarrow, Chris Dedrick and Michael Johnson; and featured Leo Kottke on guitar, Gerry Niewood on saxophone and Ralph Towner on guitar. Studio album by. Michael Johnson. Michael Johnson chronology. There Is A Breeze (1973). For All You Mad Musicians (1975).

Shop 8 records for sale for album There is a breeze by Michael Johnson on CDandLP in Vinyl and CD format.

1 Pilot Me 2 In Your Eyes 3 There Is A Breeze 4 See You Soon 5 Old Folks 6 Rooty Toot Toot For The Moon 7 My Opening Farewell 8 I Got You Covered 9 On The Road 10 Study In E Minor 11 Happier Days 12 You've Got To Be Carefully Taught. Category Country Year. There Is A Breeze (LP) Atco Records SR-0762. There Is A Breeze (LP, ATCO.

Performer: Michael Johnson Genre: Folk, World, & Country Album: There Is A Breeze Released: 1973. 3. There Is A Breeze. 6.

Продавец: Интернет-магазин Ozon. Адрес: Россия, Москва, Пресненская набережная, 10. ОГРН: 1027739244741

Tracklist

Pilot Me 3:09
In Your Eyes
There Is A Breeze
See You Soon
Old Folks
Rooty Toot Toot For The Moon
My Opening Farewell
I Got You Covered
On The Road
Study In E Minor
Happier Days
You've Got To Be Carefully Taught

Versions

Category Artist Title (Format) Label Category Country Year
SR-0762 Michael Johnson There Is A Breeze ‎(LP) Atco Records SR-0762 US 1973
SR-0762 Michael Johnson There Is A Breeze ‎(LP) Sanskrit SR-0762 US 1973
SD 7028 Michael Johnson There Is A Breeze ‎(LP, Album) ATCO Records SD 7028 US 1973
AMCY-6014 Michael Johnson There Is A Breeze ‎(CD, Album, Promo) Atco Records AMCY-6014 Japan 1999
AMCY-6014 Michael Johnson There Is A Breeze ‎(CD, Album, RE) Atco Records AMCY-6014 Japan 1999
WPCR-14868 Michael Johnson There Is A Breeze ‎(CD, Album, RE, RM, Dig) Atco Records WPCR-14868 Japan 2013
SN-16215 Michael Johnson There Is A Breeze ‎(LP, Album, RE) EMI America SN-16215 US Unknown


Comments: (1)
Uleran
foobar2000 1.4.4 / Dynamic Range Meter 1.1.1log date: 2019-05-29 19:59:53--------------------------------------------------------------------------------Analyzed: Michael Johnson / There Is A Breeze [JP 1999 CD]--------------------------------------------------------------------------------DR Peak RMS Duration Track--------------------------------------------------------------------------------DR10 -1.06 dB -17.72 dB 3:14 01-Pilot MeDR10 -3.28 dB -17.71 dB 2:47 02-In Your EyesDR11 -6.44 dB -20.88 dB 3:39 03-There Is A BreezeDR12 -0.08 dB -15.23 dB 2:24 04-See You SoonDR11 -4.12 dB -20.03 dB 5:12 05-Old FolksDR11 -4.79 dB -18.85 dB 4:41 06-Rooty Toot Toot For The MoonDR11 -2.87 dB -18.11 dB 4:36 07-My Opening FarewellDR13 -1.00 dB -17.67 dB 3:38 08-I Got You CoveredDR11 -2.35 dB -16.45 dB 3:17 09-On The RoadDR12 -7.62 dB -25.99 dB 4:33 10-Study In E MinorDR12 -2.73 dB -18.23 dB 2:19 11-Happier DaysDR11 -8.47 dB -24.15 dB 1:16 12-You've Got To Be Carefully Taught--------------------------------------------------------------------------------Number of tracks: 12Official DR value: DR11Samplerate: 44100 HzChannels: 2Bits per sample: 16Bitrate: 566 kbpsCodec: ALAC================================================================================