world.thomson-multimedia
» » Haendel, Orchestre De Chambre Jean-François Paillard - Les Concerti Grossi Op. 6 En 3 Volumes Vol. II - N° 4 En La Mineur - N° 6 En Sol Mineur, N° 5 En Re Majeur - N° 12 En Si Mineur

Haendel, Orchestre De Chambre Jean-François Paillard - Les Concerti Grossi Op. 6 En 3 Volumes Vol. II - N° 4 En La Mineur - N° 6 En Sol Mineur, N° 5 En Re Majeur - N° 12 En Si Mineur album flac

Haendel, Orchestre De Chambre Jean-François Paillard - Les Concerti Grossi Op. 6 En 3 Volumes Vol. II - N° 4 En La Mineur - N° 6 En Sol Mineur, N° 5 En Re Majeur - N° 12 En Si Mineur album flac Performer: Haendel
Title: Les Concerti Grossi Op. 6 En 3 Volumes Vol. II - N° 4 En La Mineur - N° 6 En Sol Mineur, N° 5 En Re Majeur - N° 12 En Si Mineur
Style: Baroque
MP3 album: 1248 mb
FLAC album: 1822 mb
Rating: 4.1
Other formats: MP3 MP2 APE VOX RA WMA AIFF
Genre: Classical

Jean-François Paillard. Anne-Marie Beckensteiner. Jean-François Paillard. Orchestre De Chambre Jean-François Paillard.

Tintoretto (2) (Artwork), Georg Friedrich Händel (Composed By), Jean-François Paillard (Conductor ), Jacques Vatoux (Design ), Anne-Marie Beckensteiner (Harpsichord ), Bernard Gavoty (Liner Notes), Bertrand Ott (Liner Notes), Orchestre De Chambre Jean-François Paillard (Orchestra), Marie-Claire Alain (Organ.

Concerto pour orgue en si bémol majeur, O. Concerto pour orgue en sol mineur, Op. 4 No. 3: Adagio. By Jubile Haendel & DR. 3:40.

Concerti grossi, Op. 6; 12 Concerti grossi, Opus 6; 第6號大協奏曲; Concertos grossos Opus 6; 合奏協奏曲集 作品6 (ヘンデル). Opus/Catalogue NumberOp. No. O. ; HWV 319-330. I-Catalogue NumberI-Cat.

Born as Georg Friedrich Händel (pronounced ) in Halle in the Duchy of Magdeburg, he settled in England in 1712, becoming a naturalized subject of the British crown on 22 January 1727. His works include Messiah, Water Music, and Music for the Royal Fireworks. Strongly influenced by the techniques of the great composers of the Italian Baroque era, as well as the English composer Henry Purcell, Handel's music became well-known to many composers, including Haydn, Mozart, and Beethoven.

Concerto Grosso en sol majeur, Op. 6 No. 1: 20. Suite No. 2 - 1. (Allegro). wav" WAVE INDEX 01 00:00:00 TRACK 12 AUDIO TITLE "Suite No. 2 - 2. Alla Hornpipe" PERFORMER "Orchestre de Chambre Slovaque" INDEX 00 01:57:60 FILE "12. Alla Hornpipe. wav" WAVE INDEX 01 00:00:00 TRACK 13 AUDIO TITLE "Suite No. 2 - 3. Menuet" PERFORMER "Orchestre de Chambre Slovaque" INDEX 00 04:17:35 FILE "13. Menuet. wav" WAVE INDEX 01 00:00:00 FILE "14. 2 - 4. Lentement

Six Concerti Grossi, O. (The Academy of Ancient Music feat. conductor: Christopher Hogwood) released: 2008. Cello Sonatas, Op. 5 (feat. cello: Anthony Pleeth, cello continuo: Richard Webb, harpsichord: Christopher Hogwood) released: 2008. Sonatas for Violoncello & Basso Continuo released: 2004. 12 Concerti Grossi composti sull'opera V d'Arcangelo Corelli released: 2004. Concerti Grossi, Volume 1: Op. 2, nos. 1-6, Op. 3, nos. 1-4 released: 1997. O melhor da música barroca released: 1996. 6 Concerti Grossi released: 1990. La Folia and Other Concertos and Sonatas (The Purcell Quartet & Band) released: 1988. 12 Concerti Grossi after Corelli op. 5 released: 1970. Concerti Grossi, Op. 3 (I Musici) released: Concerti grossi O. (Europa Galante feat. conductor: Fabio Biondi) released

Tracklist

Les Concerti Grossi Op. VI
N° 4 En La Mineur
A1 Larghetto Affettuoso - Allegro - Largo E Piano - Allegro
N° 6 En Sol Mineur
A2 Larghetto Et Affettuoso - Allegro Ma Non Troppo - Musette (Larghetto) - Allegro - Allegro
N° 5 En Re Majeur
B1 Larghetto E Staccato - Allegro - Presto - Largo - Allegro - Menuet (Un Poco Larghetto)
N° 12 En Si Mineur
B2 Largo - Allegro - Larghetto E Piano - Piano - Largo - Allegro

Credits

  • Cello – Bernard Fonteny
  • Composed By – Georg-Friedrich Haendel*
  • Conductor [Direction] – Jean-François Paillard
  • Harpsichord [Clavecin] – Anne-Marie Beckensteiner
  • Liner Notes – Jean-François Paillard
  • Orchestra – Orchestre De Chambre Jean-François Paillard
  • Violin – Ginette Carles, Huguette Fernandez

Notes

——Sleeve info——
Liner notes in French

Gravure Universelle
Editions Costallat — Paris
Related to Haendel, Orchestre De Chambre Jean-François Paillard - Les Concerti Grossi Op. 6 En 3 Volumes Vol. II - N° 4 En La Mineur - N° 6 En Sol Mineur, N° 5 En Re Majeur - N° 12 En Si Mineur: