world.thomson-multimedia
» » Roland Kirk - Kirk In Copenhagen 1963

Roland Kirk - Kirk In Copenhagen 1963 album flac

Roland Kirk - Kirk In Copenhagen 1963 album flac Performer: Roland Kirk
Title: Kirk In Copenhagen 1963
Style: Free Improvisation
Country: Netherlands
MP3 album: 1637 mb
FLAC album: 1108 mb
Rating: 4.9
Other formats: AIFF MIDI RA DMF MP4 VOC TTA
Genre: Jazz

In addition to being Roland Kirk's first live long-player, the breakthrough Kirk in Copenhagen was his fifth in a little over two years during his particularly prolific relationship with Mercury Records. On this 1964 release, Kirk heads up a truly integrated quintet featuring the multi-reedsmith (tenor sax, flute, manzello, strich, nose flute, and siren) as well as Tete Montoliu (piano) from Spain, Niels-Henning Ørsted Pedersen (bass) from Denmark, and a pair of Yanks in Don Moore (bass) and .

For a truly mind-altering and life-changing listening experience, try this Lone Hill Jazz double-CD reissue of Kirk's amazing performances recorded live at the Club Montmartre in Copenhagen on October 24 and 25, 1963. Present in the audience on the second night was John Coltrane, who was resting his chops after playing the Tivolis Koncertsal. Every aspect of Kirk's artistry is documented on the Copenhagen recordings - gorgeous ballads, gleefully reconstituted standards and fiery originals.

Domino is an album by Roland Kirk recorded and released in 1962, following up We Free Kings, his 1961 breakthrough as a bandleader. It was reissued in 2000 on Verve with bonus tracks featuring sessions with Herbie Hancock. It includes Kirk's tribute to Thelonious Monk and Charles Mingus, "Where Monk and Mingus Live", in a medley with the former's "Let's Call This".

Recorded October 1963 at Jazzhus Montmartre, Copenhagen, Denmark. Full title: Kirk In Copenhagen (Recorded Live At The Club Montmartre In Copenhagen, Denmark). SR 60894" on spine and back cover. MG 20894" on back cover. B0001629-02" on back cover and disc.

The Roland Kirk Quartet Meets the Benny Golson Orchestra. The Roland Kirk Quartet Meets the Benny Golson Orchestra is an album by jazz t Roland Kirk. It was originally released on the Mercury label in 1964 and features performances by Kirk's Quartet and Benny Golson's Orchestra. The cover artwork was by Dezső Csanády. All compositions by Roland Kirk except as indicated. Ecclusiastics" (Charles Mingus) - 4:27.

Roland Kirk - Kirk In Copenhagen/06 - On The Corner Of King And Scott Streets. Roland Kirk - Kirk In Copenhagen/04 - Mood Indigo. Roland Kirk - Kirk In Copenhagen/Roland Kirk - Kirk In Copenhagen. Roland Kirk - Kirk In Copenhagen/02 - Mingus-Griff Song.

Club Monmartre", Copenhagen, Denmark, October 1963. flac" WAVE TRACK 01 AUDIO INDEX 01 00:00:00 FILE "02 - Mingus-Griff Song. flac" WAVE TRACK 02 AUDIO INDEX 01 00:00:00 FILE "03 - The Monkey Thing. flac" WAVE TRACK 03 AUDIO INDEX 01 00:00:00. FILE "04 - Mood Indigo. flac" WAVE TRACK 04 AUDIO INDEX 01 00:00:00 FILE "05 - Cabin In The Sk. lac" WAVE TRACK 05 AUDIO INDEX 01 00:00:00 FILE "06 - On The Corner Of King And Scott Streets

Kirk in Copenhagen is a live album by jazz t Roland Kirk recorded in October 1963 at the Club Monmartre in Copenhagen, Denmark. It was originally released on the Mercury label in 1963 and features performances by Kirk with Tete Montoliu, Niels-Henning Ørsted Pedersen, Don Moore and . Moses and a guest appearance by Sonny Boy Williamson.

Tracklist Hide Credits

A1 Narrow Bolero 5:22
A2 Mingus-Griff Song 8:07
A3 The Monkey Thing 5:49
B1 Mood Indigo
Written-By – A. Bigard*, D. Ellington*, I. Mills*
7:16
B2 Cabin In The Sky
Written-By – John Latouche, Vernon Duke
7:45
B3 On The Corner Of King And Scott Streets 4:14

Companies, etc.

  • Record Company – Springboard International Records, Inc.
  • Published By – Kayak Music Inc.
  • Published By – Mills Music, Inc.
  • Published By – Miller Music Corp.

Credits

  • Bass – Don Moore, Niels Henning Orsted*
  • Drums – J.C. Moses
  • Harmonica – Big Skol
  • Liner Notes – Edith Kirk
  • Piano – Tete Montoliu
  • Tenor Saxophone, Saxello [Manzello], Alto Saxophone [Stritch], Flute, Nose Flute, Siren – Roland Kirk
  • Written-By – Roland Kirk (tracks: A1 to A3, B3)

Notes

Cover States "Stereo", Label States "Mono"

This and other albums in the TRIP "5500" series have been re-issued because of their lasting interest and value in our jazz heritage.

Courtesy Of Phonogram, Inc.
Originally Released As Mercury SR-60894 A/B

Trip Records, A Product of Springboard International Records, Inc., P.O. Box 436, Linden New Jersey 07035

Barcode and Other Identifiers

  • Matrix / Runout (A-Side - Etching/Label): SLX-07067
  • Matrix / Runout (B-Side - Etching/Label): SLX-07068
  • Rights Society: BMI
  • Rights Society: ASCAP

Other versions

Category Artist Title (Format) Label Category Country Year
125 914 MCL Roland Kirk Kirk In Copenhagen ‎(LP, Album, Mono) Mercury 125 914 MCL Netherlands 1964
SR-60894 Roland Kirk Kirk In Copenhagen ‎(LP, Album, Promo) Mercury SR-60894 US 1964
MG-20894 Roland Kirk Kirk In Copenhagen ‎(LP, Album, Mono) Mercury MG-20894 US Unknown
SM-7155 Roland Kirk Kirk In Copenhagen ‎(LP, Album, Mono) Mercury SM-7155 Japan 1964
SJ-19618, MG 20894, (SR-60894) Roland Kirk Kirk In Copenhagen ‎(LP, Album, RE) Mercury, Mercury, Mercury SJ-19618, MG 20894, (SR-60894) Japan Unknown


Comments: (1)
AfinaS
The album is in stereo.