world.thomson-multimedia
» » Karin Krog - Nice Work If You Can Get It

Karin Krog - Nice Work If You Can Get It album flac

Karin Krog - Nice Work If You Can Get It album flac Performer: Karin Krog
Title: Nice Work If You Can Get It
Released: 1994
MP3 album: 1712 mb
FLAC album: 1175 mb
Rating: 4.2
Other formats: AU DTS DMF AAC RA MMF AHX
Genre: Jazz

Nice Work If You Can Get It is a 1983 studio album by Ella Fitzgerald and André Previn, with accompaniment from the double bassist Niels-Henning Ørsted Pedersen. This was Fitzgerald's only album recorded with Previn, and represented her first album of single composer material since her 1981 album Ella Abraça Jobim. Nice Work If You Can Get It was the last in a long line of collaborations that Fitzgerald made with predominantly jazz piano accompaniment.

Artists Karin Krog Gershwin with Karin Krog. Gershwin with Karin Krog Karin Krog. Gershwin with Karin Krog. This album has an average beat per minute of BPM (slowest/fastest tempos:, BPM). See its BPM profile at the bottom of the page. Tracklist Gershwin with Karin Krog. Nice Work If You Can Get It. 3'05. 6. Embraceable You. 4'45. BPM Profile Gershwin with Karin Krog. Album starts at BPM, ends at BPM (+0), with tempos within the -BPM range. Try refreshing the page if dots are missing). Recent albums by Karin Krog. Cabin in the Sky. 2011.

Complete your Karin Krog collection. 3:01. 4:42. Gershwin With Karin Krog ‎(LP, Album).

Album: Sweet Talker - The Best of Karin Krog. Karin Krog: best 2 tracks. Karin Krog - Don't Just Sing Don't Just Sing: A Karin Krog Anthology 1963-1999, 2015 07:00.

Nice Work If You Can Get It is a musical featuring songs by George and Ira Gershwin, with a book written by Joe DiPietro, and based on material by Guy Bolton and P. G. Wodehouse. Nice Work premiered on Broadway in April 2012. The musical was initially produced in 2001 at the Goodspeed Opera House titled They All Laughed!, with the book by Joe DiPietro and direction by Christopher Ashley. The musical received "mixed notices" according to Frank Rizzo, writing in the Hartford Courant.

Nice Work If You Can Get I. av Pre-gap length 0:00:02. My Man's Gone No. av" WAVE INDEX 01 00:00:00 TRACK 05 AUDIO TITLE "Nice Work If You Can Get It" PERFORMER "Karin Krog" INDEX 00 04:01:10 FILE "05. Nice Work If You Can Get I. av" WAVE INDEX 01 00:00:00 TRACK 06 AUDIO TITLE "Embraceable You" PERFORMER "Karin Krog" INDEX 00 03:02:08 FILE "06. Embraceable Yo. av" WAVE INDEX 01 00:00:00 TRACK 07 AUDIO TITLE "They All Laughed" PERFORMER "Karin Krog" INDEX 00 04:42:45 FILE "07.

And you can get it if you try. И ты сможешь её получить, если постараешься. Strollin' with the one girl. Гулять со своей девушкой, Sighin' sigh after sigh. Испускающей вздох за вздохом, – Nice work if you can get it. Хорошая работа, если ты сможешь её получить. And if you get it won't you tell me how? И если ты получил её, то не скажешь мне, как? Holdin' hands at midnight. Держаться за руки в полночь. neath a starry sky. Под звёздным небом. And strollin' with the one girl.

Tracklist

1 Nice Work If You Can Get It 3:01

Companies, etc.

  • Phonographic Copyright (p) – Polydor
  • Phonographic Copyright (p) – PolyGram A/S
  • Copyright (c) – PolyGram A/S
  • Marketed By – PolyGram
  • Pressed By – Bel Produksjon A/S

Notes

On inlay card:
P 1973 Polydor
Marketed by PolyGram
This promo CD
P 1994 PolyGram A.s, Oslo
C 1994 PolyGram A.s, Oslo

On CD:
Ⓟ1994 PolyGram A.s, Oslo
©1994 PolyGram A.s, Oslo

Barcode and Other Identifiers

  • Matrix / Runout: BEL PRODUKSJON A/S KARINPROMO 1 94092809
  • Rights Society: BIEM
  • Rights Society: N©B